forumSoft4U.org Forum Index
forumSoft4U.org Forum Index
Register
 
forumSoft4U.org Forum Index FAQ Search Memberlist Usergroups Profile Log in to check your private messages Log in
 

UWAGA!! UWAGA!!  NOWY REGULAMIN DZIAŁU FILMY

Zanim założysz nowy temat / napiszesz posta:

Koniecznie przeczytaj nowy regulamin działu Filmy klikając TUTAJ !!



[HTTP] Kraina Lodu / Frozen 3D (2013) mini-HD.1080p.Dual.Audio.BluRay.Over-Under.x264.AC3-SONDA |

 
Post new topic   Reply to topic    forumSoft4U.org Forum Index -> Filmy
View previous topic :: View next topic  
Author Message
Motylek
Guru
Guru



Joined: 28 Mar 2010
Warnings: 1

Posts: 9596

Thanks: 0
Thanked 236 Times in 233 Posts

Status: Offline

PostPosted: 00:33, 17 March 2014    Post subject: Kraina Lodu / Frozen 3D (2013) mini-HD.1080p.Dual.Audio.BluRay.Over-Under.x264.AC3-SONDA | Quote selected Reply with quote



gatunek: Animacja, Familijny, Przygodowy
produkcja: USA
premiera: 29 listopada 2013 (Polska) 20 listopada 2013 (świat)
reżyseria: Chris Buck, Jennifer Lee
scenariusz: Jennifer Lee

Anna wyrusza na wielką wyprawę, by odnaleźć swoją siostrę Elsę, której magiczna moc uwięziła królestwo Arendelle w okowach wiecznej zimy. W poszukiwaniach towarzyszy jej Kristoff, przed którym górskie szlaki nie kryją żadnych tajemnic i jego lojalny renifer Sven. Podczas misji ocalenia królestwa przyjaciele zmierzą się z surową pogodą, napotkają niebotyczne góry, tajemnicze trolle i zabawnego bałwana o imieniu Olaf.



Kraina Lodu / Frozen 3D (2013) mini-HD.1080p.Dual.Audio.BluRay.Over-Under.x264.AC3-SONDA | Dubbing PL [KiNO][/size]

[spoiler]
Quote:
General
Format : Matroska
Format version : Version 2
File size : 3.97 GiB
Duration : 1h 42mn
Overall bit rate : 5 565 Kbps
Movie name : FROZEN_3D.Title0.Bluray3D Rip by Sonda [AT-Team]
Encoded date : UTC 2014-03-15 17:12:01
Writing application : mkvmerge v5.7.0 ('The Whirlwind') built on Jul 8 2012 20:08:51
Writing library : libebml v1.2.3 + libmatroska v1.3.0

Video
ID : 1
Format : AVC
Format/Info : Advanced Video Codec
Format profile : High@L4.1
Format settings, CABAC : Yes
Format settings, ReFrames : 2 frames
Codec ID : V_MPEG4/ISO/AVC
Duration : 1h 42mn
Bit rate : 4 751 Kbps
Width : 1 920 pixels
Height : 1 080 pixels
Display aspect ratio : 16:9 (2.39:1)
Frame rate mode : Constant
Frame rate : 23.976 fps
Color space : YUV
Chroma subsampling : 4:2:0
Bit depth : 8 bits
Scan type : Progressive
Bits/(Pixel*Frame) : 0.096
Stream size : 3.39 GiB (85%)
Title : BluRay 3D Rip by Sonda
Writing library : x264 core
Default : Yes
Forced : No
Color primaries : BT.709
Transfer characteristics : BT.709
Matrix coefficients : BT.709

Audio #1
ID : 2
Format : AC-3
Format/Info : Audio Coding 3
Mode extension : CM (complete main)
Format settings, Endianness : Big
Codec ID : A_AC3
Duration : 1h 42mn
Bit rate mode : Constant
Bit rate : 256 Kbps
Channel(s) : 2 channels
Channel positions : Front: L R
Sampling rate : 48.0 KHz
Bit depth : 16 bits
Compression mode : Lossy
Stream size : 187 MiB (5%)
Title : AC3 2.0 dubbing PL - KINO!!!!!!!
====================================
Language : Polish
Default : Yes
Forced : Yes

Audio #2
ID : 3
Format : AC-3
Format/Info : Audio Coding 3
Mode extension : CM (complete main)
Format settings, Endianness : Big
Codec ID : A_AC3
Duration : 1h 42mn
Bit rate mode : Constant
Bit rate : 448 Kbps
Channel(s) : 6 channels
Channel positions : Front: L C R, Side: L R, LFE
Sampling rate : 48.0 KHz
Bit depth : 16 bits
Compression mode : Lossy
Stream size : 328 MiB (8%)
Title : AC3 5.1 Original
Language : English
Default : No
Forced : No

Text #1
ID : 4
Format : UTF-8
Codec ID : S_TEXT/UTF8
Codec ID/Info : UTF-8 Plain Text
Title : napisy 2D.srt
Language : Polish
Default : No
Forced : No

Text #2
ID : 5
Format : PGS
Muxing mode : zlib
Codec ID : S_HDMV/PGS
Codec ID/Info : The same subtitle format used on BDs/HD-DVDs
Title : napisy 3D.sup
Language : Polish
Default : No
Forced : No
[/spoiler]

Code:
http://egofiles.com/g3G6X6oA3hcXgRrA/FROZEN3D.part4.rar
http://egofiles.com/MCt20Wfm6jkxenlf/FROZEN3D.part3.rar
http://egofiles.com/YYBomXZuzFkW4gD6/FROZEN3D.part2.rar
http://egofiles.com/djye9XjnMXBKgxpB/FROZEN3D.part1.rar
http://egofiles.com/bI0bzzTCesB5686t/FROZEN3D.part5.rar

http://dodane.pl/file/277849/FROZEN3D.part1.rar
http://dodane.pl/file/277860/FROZEN3D.part2.rar
http://dodane.pl/file/277852/FROZEN3D.part3.rar
http://dodane.pl/file/277862/FROZEN3D.part4.rar
http://dodane.pl/file/277863/FROZEN3D.part5.rar

http://rapidu.net/4020131649/FROZEN3D.part1.rar
http://rapidu.net/0920131509/FROZEN3D.part3.rar
http://rapidu.net/0320131432/FROZEN3D.part2.rar
http://rapidu.net/3620131284/FROZEN3D.part4.rar
http://rapidu.net/3720130804/FROZEN3D.part5.rar

http://uploaded.net/file/7rgj3tzm/FROZEN3D.part1.rar
http://uploaded.net/file/crc6ck7w/FROZEN3D.part4.rar
http://uploaded.net/file/qxg5n721/FROZEN3D.part2.rar
http://uploaded.net/file/r4uenmr2/FROZEN3D.part3.rar
http://uploaded.net/file/jo7ltpe3/FROZEN3D.part5.rar

http://catshare.net/WvWNsswTBCn3ZPeO/FROZEN3D.part5.rar
http://catshare.net/8vHYst52I1x0KC1b/FROZEN3D.part1.rar
http://catshare.net/6WpV5HnPqebovJ1I/FROZEN3D.part3.rar
http://catshare.net/86Zw4o62h8uHVwY3/FROZEN3D.part4.rar
http://catshare.net/CaZqTsBV1Vdtnt6p/FROZEN3D.part2.rar
Back to top
View user's profile Send private message Send e-mail
Pani kontekstowa
+koleżanka
Forum Moorhunt, serwery bez limitu oraz rapidshare
PostPosted: 00:33, 17 March 2014 

Back to top
Display posts from previous:   
Post new topic   Reply to topic    forumSoft4U.org Forum Index -> Filmy All times are GMT + 2 Hours
Page 1 of 1

 
Jump to:  
You cannot post new topics in this forum
You cannot reply to topics in this forum
You cannot edit your posts in this forum
You cannot delete your posts in this forum
You cannot vote in polls in this forum

Report abuse - DMCA